TeenCurves - Valentina Nappi
[TV] OCN 작은 신의 아이들.E11.180407.720p-NEXT

The Trek 2002 720p Esub HD Dual Audio Thai Hindi GOPISAHI

Format                         : Matroska
Format version                 : Version 4 / Version 2
File size                      : 501 MiB
Duration                       : 1 h 42 min
Overall bit rate               : 685 kb/s
Movie name                     : The Trek 2002 GOPISAHIVideo
Format                         : AVC
Codec ID                       : V_MPEG4/ISO/AVC
Duration                       : 1 h 42 min
Bit rate                       : 500 kb/s
Width                          : 1 280 pixels
Height                         : 720 pixels
Display aspect ratio           : 16:9
Frame rate mode                : Constant
Frame rate                     : 23.976 (24000/1001) FPS
Stream size                    : 365 MiB (73%)
Title                          : GOPISAHI
Writing library                : x264

Audio #1
Format                         : AAC
Duration                       : 1 h 42 min
Bit rate                       : 90.8 kb/s
Channel(s)                     : 6 channels
Channel positions              : Front: L C R, Side: L R, LFE
Sampling rate                  : 44.1 kHz
Frame rate                     : 43.066 FPS (1024 SPF)
Compression mode               : Lossy
Stream size                    : 66.4 MiB (13%)
Language                       : Tahi

Audio #2
Format                         : AAC
Duration                       : 1 h 42 min
Bit rate                       : 91.5 kb/s
Channel(s)                     : 6 channels
Channel positions              : Front: L C R, Side: L R, LFE
Sampling rate                  : 44.1 kHz
Frame rate                     : 43.066 FPS (1024 SPF)
Compression mode               : Lossy
Stream size                    : 66.9 MiB (13%)
Language                       : Hindi

Download Here                   Watch Now

Text
Language                       : English

drive

Loading...