90 Degrees | Amber Richards | Sucker Punch BLuRayRip

Sons of Liberty 2015 S1 E1 720p Esub BlyRay Dual Audio English Hindi GOPISAHI


Format                         : Matroska
Format version                 : Version 4 / Version 2
File size                      : 417 MiB
Duration                       : 1 h 25 min
Overall bit rate               : 683 kb/s
Movie name                     : Sons of Liberty 2015Video
Format                         : AVC
Codec ID                       : V_MPEG4/ISO/AVC
Duration                       : 1 h 25 min
Bit rate                       : 500 kb/s
Width                          : 1 280 pixels
Height                         : 720 pixels
Display aspect ratio           : 16:9
Frame rate mode                : Constant
Frame rate                     : 23.976 (24000/1001) FPS
Stream size                    : 305 MiB (73%)
Writing library                : x264

Audio #1
Format                         : AAC
Duration                       : 1 h 25 min
Bit rate                       : 86.1 kb/s
Channel(s)                     : 6 channels
Channel positions              : Front: L C R, Side: L R, LFE
Sampling rate                  : 44.1 kHz
Frame rate                     : 43.066 FPS (1024 SPF)
Stream size                    : 52.6 MiB (13%)
Language                       : English

Audio #2
Format                         : AAC
Duration                       : 1 h 25 min
Bit rate                       : 93.7 kb/s
Channel(s)                     : 6 channels
Channel positions              : Front: L C R, Side: L R, LFE
Sampling rate                  : 44.1 kHz
Frame rate                     : 43.066 FPS (1024 SPF)
Compression mode               : Lossy
Stream size                    : 57.2 MiB (14%)
Language                       : Hindi

Download Here                   Watch Now

Text
Language                       : English

drive

Loading...