Watch Movie
Indonesian The Monkey King 3 (2018)

Room On The Broom 2012 720p HD Dual Audio English Hindi GOPISAHI


Format                         : Matroska
Format version                 : Version 4 / Version 2
File size                      : 129 MiB
Duration                       : 26 min 45 s
Overall bit rate               : 672 kb/s
Movie name                     : Room On The Broom 2012Video
Format                         : AVC
Codec ID                       : V_MPEG4/ISO/AVC
Duration                       : 26 min 45 s
Bit rate                       : 500 kb/s
Width                          : 1 280 pixels
Height                         : 720 pixels
Display aspect ratio           : 16:9
Frame rate mode                : Constant
Frame rate                     : 23.976 (24000/1001) FPS
Stream size                    : 95.6 MiB (74%)
Writing library                : x264 core 148 r2708 86b7198

Audio #1
Format                         : AAC
Duration                       : 26 min 43 s
Bit rate                       : 88.7 kb/s
Channel(s)                     : 6 channels
Channel positions              : Front: L C R, Side: L R, LFE
Sampling rate                  : 44.1 kHz
Frame rate                     : 43.066 FPS (1024 SPF)
Stream size                    : 17.0 MiB (13%)
Language                       : Hindi

Audio #2
Format                         : AAC
Duration                       : 25 min 43 s
Bit rate                       : 84.6 kb/s
Channel(s)                     : 6 channels
Channel positions              : Front: L C R, Side: L R, LFE
Sampling rate                  : 44.1 kHz
Frame rate                     : 43.066 FPS (1024 SPF)
Stream size                    : 15.6 MiB (12%)
Title                          : GOPISAHI
Language                       : English

Recent search terms:

Loading...