How To Download ?
Izetta: The Last Witch

The Rebel 2007 720p Esub BlyRay Dual Audio Hindi Vietnamese GOPISAHI

Format                         : Matroska
Format version                 : Version 4 / Version 2
File size                      : 510 MiB
Duration                       : 1 h 44 min
Overall bit rate               : 684 kb/s
Movie name                     : The Rebel 2007Video
Format                         : AVC
Format settings, ReFrames      : 16 frames
Codec ID                       : V_MPEG4/ISO/AVC
Duration                       : 1 h 44 min
Bit rate                       : 500 kb/s
Width                          : 1 280 pixels
Height                         : 720 pixels
Display aspect ratio           : 16:9
Frame rate mode                : Constant
Frame rate                     : 25.000 FPS
Stream size                    : 373 MiB (73%)
Writing library                : x264

Audio #1
Format                         : AAC
Duration                       : 1 h 44 min
Bit rate                       : 88.9 kb/s
Channel(s)                     : 6 channels
Channel positions              : Front: L C R, Side: L R, LFE
Sampling rate                  : 44.1 kHz
Frame rate                     : 43.066 FPS (1024 SPF)
Stream size                    : 66.2 MiB (13%)
Language                       : Vietnamese

Audio #2
Format                         : AAC
Duration                       : 1 h 44 min
Bit rate                       : 92.6 kb/s
Channel(s)                     : 6 channels
Channel positions              : Front: L C R, Side: L R, LFE
Sampling rate                  : 44.1 kHz
Frame rate                     : 43.066 FPS (1024 SPF)
Compression mode               : Lossy
Stream size                    : 68.9 MiB (14%)
Language                       : Hindi

Download Here                   Watch Now

Text
Language                       : English

Loading...