Suite et Télécharger... | SUB Terrace House Boys x Girls Next Door 33 minutes ago EP 83 | Interior Therapy with Jeff Lewis

The New Adventures Of Max 2017 720p HD Dual Audio Hindi Indonesian

Format : Matroska
Format version : Version 4 / Version 2
File size : 220 MiB
Duration : 45 min 43 s
Overall bit rate : 673 kb/s
Movie name : The New Adventures Of Max 2017

Download Here                   Watch Now

Video
Format : AVC
Codec ID : V_MPEG4/ISO/AVC
Duration : 45 min 43 s
Bit rate : 500 kb/s
Width : 1 280 pixels
Height : 720 pixels
Display aspect ratio : 16:9
Frame rate mode : Constant
Frame rate : 24.000 FPS
Stream size : 164 MiB (74{c3004b8f5e0f37c8553e313d82107df75406ab532a995ee1e957eb0f6eb30398})
Writing library : x264

Audio #1
Format : AAC
Duration : 45 min 43 s
Bit rate : 90.3 kb/s
Channel(s) : 6 channels
Channel positions : Front: L C R, Side: L R, LFE
Sampling rate : 44.1 kHz
Frame rate : 43.066 FPS (1024 SPF)
Compression mode : Lossy
Stream size : 29.5 MiB (13{c3004b8f5e0f37c8553e313d82107df75406ab532a995ee1e957eb0f6eb30398})
Language : INDO

Audio #2
Format : AAC
Duration : 45 min 43 s
Bit rate : 79.9 kb/s
Channel(s) : 6 channels
Channel positions : Front: L C R, Side: L R, LFE
Sampling rate : 44.1 kHz
Frame rate : 43.066 FPS (1024 SPF)
Stream size : 26.1 MiB (12{c3004b8f5e0f37c8553e313d82107df75406ab532a995ee1e957eb0f6eb30398})
Language : Hindi

drive

More DD Links

Loading...