The Odd CoupleDziwna para
Fundamentals izle

Kung Fu Yoga 2017 720p Dual Audio Hindi-Cam WEB-DL x264 Download

 Kung Fu Yoga 2017 720p Dual Audio Hindi-Cam WEB-DL x264 Download

 Kung Fu Yoga 2017 720p Dual Audio Hindi-Cam WEB-DL x264 Download

Kung Fu Yoga
2017 ‧ Mystery/Action ‧ 1h 47m
5.6/10IMDb2/5Times of India50%Rotten Tomatoes
Jack (Jackie Chan), a world-renowned archaeology professor, and his team are on a grand quest to locate a lost ancient Indian treasure when they are ambushed by a team of mercenaries and left for dead. Using his vast knowledge of history and kung fu, Jack leads his team on a race around the world to beat the mercenaries to the treasure and save an ancient culture.
Initial release: 26 January 2017 (Taiwan)
Director: Stanley Tong
Mandarin: Gong fu yu jia

General
Format                                   : Matroska
Format version                           : Version 4 / Version 2
File size                                : 998 MiB
Duration                                 : 1 h 47 min
Overall bit rate                         : 1 302 kb/s
Encoded date                             : UTC 2017-03-27 11:07:34
Writing application                      : mkvmerge v9.7.1 (‘Pandemonium’) 64bit
Writing library                          : libebml v1.3.4 + libmatroska v1.4.5

Download Here                   Watch Now

Video
ID                                       : 2
Format                                   : AVC
Format/Info                              : Advanced Video Codec
Format profile                           : [email protected]
Format settings, CABAC                   : Yes
Format settings, ReFrames                : 5 frames
Codec ID                                 : V_MPEG4/ISO/AVC
Duration                                 : 1 h 47 min
Bit rate                                 : 1 045 kb/s
Width                                    : 1 280 pixels
Height                                   : 534 pixels
Display aspect ratio                     : 2.40:1
Frame rate mode                          : Constant
Frame rate                               : 24.000 FPS
Color space                              : YUV
Chroma subsampling                       : 4:2:0
Bit depth                                : 8 bits
Scan type                                : Progressive
Bits/(Pixel*Frame)                       : 0.064
Stream size                              : 801 MiB (80%)
Writing library                          : x264 core 133 r2334 a3ac64b
Default                                  : Yes
Forced                                   : No

Audio #1
ID                                       : 1
Format                                   : AAC
Format/Info                              : Advanced Audio Codec
Format profile                           : HE-AAC / LC
Codec ID                                 : A_AAC
Duration                                 : 1 h 47 min
Bit rate                                 : 63.1 kb/s
Channel(s)                               : 2 channels
Channel positions                        : Front: L R
Sampling rate                            : 48.0 kHz / 24.0 kHz
Frame rate                               : 23.438 FPS (1024 spf)
Compression mode                         : Lossy
Delay relative to video                  : 31 ms
Stream size                              : 48.4 MiB (5%)
Language                                 : Chinese
Default                                  : No
Forced                                   : No

Audio #2
ID                                       : 3
Format                                   : MPEG Audio
Format version                           : Version 1
Format profile                           : Layer 3
Mode                                     : Joint stereo
Mode extension                           : MS Stereo
Codec ID                                 : A_MPEG/L3
Codec ID/Hint                            : MP3
Duration                                 : 1 h 47 min
Bit rate mode                            : Constant
Bit rate                                 : 192 kb/s
Channel(s)                               : 2 channels
Sampling rate                            : 44.1 kHz
Frame rate                               : 38.281 FPS (1152 spf)
Compression mode                         : Lossy
Stream size                              : 147 MiB (15%)
Writing library                          : LAME3.98.2
Language                                 : Hindi
Default                                  : Yes
Forced                                   : Yes

SCREENSHOTS

 Kung Fu Yoga 2017 720p Dual Audio Hindi-Cam WEB-DL x264 Download

 Kung Fu Yoga 2017 720p Dual Audio Hindi-Cam WEB-DL x264 Download

DOWNLOAD LINKS

TORRENT LINKS

DIRECT DOWNLOADS

Loading...