PatrickStar
Ariana Grande Love Me Harder Free

Iep! 2010 DVD Dual Audio Hindi Dutch GOPISAHI

Format                         : Matroska
Format version                 : Version 4 / Version 2
File size                      : 323 MiB
Duration                       : 1 h 16 min
Overall bit rate               : 590 kb/s
Movie name                     : Iep! 2010 GOPISAHI

Video
Format                         : AVC
Codec ID                       : V_MPEG4/ISO/AVC
Duration                       : 1 h 16 min
Bit rate                       : 400 kb/s
Width                          : 1 280 pixels
Height                         : 544 pixels
Display aspect ratio           : 16:9
Frame rate mode                : Constant
Frame rate                     : 25.000 FPS
Stream size                    : 218 MiB (68%)
Writing library                : x264

Download Here                   Watch Now

Audio #1
Format                         : AAC
Duration                       : 1 h 16 min
Bit rate                       : 96.0 kb/s
Channel(s)                     : 6 channels
Channel positions              : Front: L C R, Side: L R, LFE
Sampling rate                  : 44.1 kHz
Frame rate                     : 43.066 FPS (1024 SPF)
Stream size                    : 51.5 MiB (16%)
Language                       : Hindi

Audio #2
Format                         : AAC
Duration                       : 1 h 16 min
Bit rate                       : 93.3 kb/s
Channel(s)                     : 6 channels
Channel positions              : Front: L C R, Side: L R, LFE
Sampling rate                  : 44.1 kHz
Frame rate                     : 43.066 FPS (1024 SPF)
Stream size                    : 51.0 MiB (16%)
Language                       : Dutch

Loading...