Jen Costello | Ruperi Valu Marathi Song | En palaa takaisin koskaan, luulen

The Gruffalo 2009 720p BluRay Dual Audio English Hindi GOPISAHI

Format                         : Matroska
Format version                 : Version 4 / Version 2
File size                      : 131 MiB
Duration                       : 27 min 0 s
Overall bit rate               : 677 kb/s
Movie name                     : The Gruffalo 2009 GOPISAHIVideo
Format                         : AVC
Codec ID                       : V_MPEG4/ISO/AVC
Duration                       : 27 min 0 s
Bit rate                       : 500 kb/s
Width                          : 1 280 pixels
Height                         : 720 pixels
Display aspect ratio           : 16:9
Frame rate mode                : Constant
Frame rate                     : 25.000 FPS
Stream size                    : 96.6 MiB (74{c3004b8f5e0f37c8553e313d82107df75406ab532a995ee1e957eb0f6eb30398})
Writing library                : x264 core 148 r2708 86b7198Audio #1
Format                         : AAC
Duration                       : 27 min 0 s
Bit rate                       : 86.6 kb/s
Channel(s)                     : 6 channels
Channel positions              : Front: L C R, Side: L R, LFE
Sampling rate                  : 44.1 kHz
Frame rate                     : 43.066 FPS (1024 SPF)
Stream size                    : 16.7 MiB (13{c3004b8f5e0f37c8553e313d82107df75406ab532a995ee1e957eb0f6eb30398})
Title                          : GOPISAHI
Language                       : EnglishAudio #2
Format                         : AAC
Codec ID                       : A_AAC-2
Duration                       : 27 min 0 s
Bit rate                       : 87.5 kb/s
Channel(s)                     : 6 channels
Channel positions              : Front: L C R, Side: L R, LFE
Sampling rate                  : 44.1 kHz
Frame rate                     : 43.066 FPS (1024 SPF)
Stream size                    : 16.9 MiB (13{c3004b8f5e0f37c8553e313d82107df75406ab532a995ee1e957eb0f6eb30398})
Title                          : GOPISAHI
Language                       : Hindi

Download Links
DD-720p

Loading...