Todas las Peliculas
Read more...

GG Bond Movie Ultimate Battle 2015 720p HD Dual Audio Hindi Chinese GOPISAHI

Format : Matroska
Format version : Version 4 / Version 2
File size : 432 MiB
Duration : 1 h 30 min
Overall bit rate : 668 kb/s
Movie name : GG Bond Movie Ultimate Battle 2015

Download Here                   Watch Now

Video
Format : AVC
Codec ID : V_MPEG4/ISO/AVC
Duration : 1 h 30 min
Bit rate : 500 kb/s
Width : 1 280 pixels
Height : 544 pixels
Display aspect ratio : 2.35:1
Frame rate mode : Constant
Frame rate : 24.000 FPS
Stream size : 323 MiB (75{c3004b8f5e0f37c8553e313d82107df75406ab532a995ee1e957eb0f6eb30398})
Writing library : x264

Audio #1
Format : AAC
Duration : 1 h 30 min
Bit rate : 93.1 kb/s
Channel(s) : 6 channels
Channel positions : Front: L C R, Side: L R, LFE
Sampling rate : 44.1 kHz
Frame rate : 43.066 FPS (1024 SPF)
Stream size : 60.2 MiB (14{c3004b8f5e0f37c8553e313d82107df75406ab532a995ee1e957eb0f6eb30398})
Language : Hindi

Audio #2
Format : AAC
Duration : 1 h 30 min
Bit rate : 72.0 kb/s
Channel(s) : 6 channels
Channel positions : Front: L C R, Side: L R, LFE
Sampling rate : 44.1 kHz
Frame rate : 43.066 FPS (1024 SPF)
Compression mode : Lossy
Stream size : 46.5 MiB (11{c3004b8f5e0f37c8553e313d82107df75406ab532a995ee1e957eb0f6eb30398})
Language : Chinese

http://1.bp.blogspot.com/-JmgqqRf2ON4/WlF3M7dfC_I/AAAAAAAARCg/_edeSLpWWMsy9b5gosMm4N0iyltcACRCwCLcBGAs/s1600/GG{c3004b8f5e0f37c8553e313d82107df75406ab532a995ee1e957eb0f6eb30398}2BBond{c3004b8f5e0f37c8553e313d82107df75406ab532a995ee1e957eb0f6eb30398}2BMovie{c3004b8f5e0f37c8553e313d82107df75406ab532a995ee1e957eb0f6eb30398}2BUltimate{c3004b8f5e0f37c8553e313d82107df75406ab532a995ee1e957eb0f6eb30398}2BBattle{c3004b8f5e0f37c8553e313d82107df75406ab532a995ee1e957eb0f6eb30398}2B2015{c3004b8f5e0f37c8553e313d82107df75406ab532a995ee1e957eb0f6eb30398}2B720p{c3004b8f5e0f37c8553e313d82107df75406ab532a995ee1e957eb0f6eb30398}2BHD{c3004b8f5e0f37c8553e313d82107df75406ab532a995ee1e957eb0f6eb30398}2BDual{c3004b8f5e0f37c8553e313d82107df75406ab532a995ee1e957eb0f6eb30398}2BAudio{c3004b8f5e0f37c8553e313d82107df75406ab532a995ee1e957eb0f6eb30398}2BHindi{c3004b8f5e0f37c8553e313d82107df75406ab532a995ee1e957eb0f6eb30398}2BChinese{c3004b8f5e0f37c8553e313d82107df75406ab532a995ee1e957eb0f6eb30398}2BGOPISAHI.mkv_thumbs.jpg

http://1.bp.blogspot.com/-1RU9JXXOZPs/WlF3LTOECbI/AAAAAAAARCc/J_cXL71KnCIRK7cTOzJX40XwI33r1TQYACLcBGAs/s1600/GG{c3004b8f5e0f37c8553e313d82107df75406ab532a995ee1e957eb0f6eb30398}2BBond{c3004b8f5e0f37c8553e313d82107df75406ab532a995ee1e957eb0f6eb30398}2BMovie{c3004b8f5e0f37c8553e313d82107df75406ab532a995ee1e957eb0f6eb30398}2BUltimate{c3004b8f5e0f37c8553e313d82107df75406ab532a995ee1e957eb0f6eb30398}2BBattle{c3004b8f5e0f37c8553e313d82107df75406ab532a995ee1e957eb0f6eb30398}2B2015{c3004b8f5e0f37c8553e313d82107df75406ab532a995ee1e957eb0f6eb30398}2B720p{c3004b8f5e0f37c8553e313d82107df75406ab532a995ee1e957eb0f6eb30398}2BHD{c3004b8f5e0f37c8553e313d82107df75406ab532a995ee1e957eb0f6eb30398}2BDual{c3004b8f5e0f37c8553e313d82107df75406ab532a995ee1e957eb0f6eb30398}2BAudio{c3004b8f5e0f37c8553e313d82107df75406ab532a995ee1e957eb0f6eb30398}2BHindi{c3004b8f5e0f37c8553e313d82107df75406ab532a995ee1e957eb0f6eb30398}2BChinese{c3004b8f5e0f37c8553e313d82107df75406ab532a995ee1e957eb0f6eb30398}2BGOPISAHI.mkv_snapshot_00.46.21.jpg

Download Links
G-DRIVE LINKS

Recent search terms:

Loading...