72.STAR-893
女经理 Manger 2018 HD720P X264 AAC English 中文字幕

The Eye 2008 720p Esub BluRay Dual Audio English Hindi GOPISAHI @ Team IcTv

Title: The Eye
Year: 2008
Runtime: 98 minutes
Votes: 46059
Rating: 5.4/10
Language: English, Spanish
Country: USA, Canada
All Genres: Horror, Mystery
Plot Outline: A woman receives an eye transplant that allows her to see into the supernatural world.
Tagline: Don’t Believe Your Eyes.
Director: David Moreau
Xavier Palud
Writing By: Sebastian Gutierrez,Yuet-Jan Hui,Oxide Chun Pang,Danny Pang,
Produced By: Peter Block,Peter Ho-Sun Chan,Doug Davison,Mike Elliott,Ogden Gavanski,Don Granger,Sarah Baker Grillo,Roy Lee,Michelle Manning,Darren Miller,Jack L. Murray,Tom Ortenberg,Michael Paseornek,Paula Wagner,
Music: Marco Beltrami
Plot:
The violinist Sydney Wells has been blind since she was five years old due to an accident. She submits to a surgery of cornea transplantation to recover her vision, and while recovering from the operation, she realizes that she’s having strange visions. With the support of Dr. Paul Faulkner, Sidney finds who the donor of her eyes and begins a journey to find out the truth behind her visions.
– Written by Genesis Rojas, Caracas, Venezuela.
A woman receives an eye transplant that allows her to see into the supernatural world.
– Written by Anonymous
Cast:
Jessica Alba as Sydney Wells
Alessandro Nivola as Dr. Paul Faulkner
Parker Posey as Helen Wells
Rade Serbedzija as Simon McCullough
Fernanda Romero as Ana Christina Martinez
Rachel Ticotin as Rosa Martinez
Obba Babatundé as Dr. Haskins
Danny Mora as Miguel
Chloë Grace Moretz as Alicia
Brett A. Haworth as Shadowman
Trailers:
The Eye

Download Here                   Watch Now

Format                         : Matroska
Format version                 : Version 4 / Version 2
File size                      : 801 MiB
Duration                       : 1 h 36 min
Overall bit rate               : 1 159 kb/s
Movie name                     : The Eye 2008

Video
Format                         : AVC
Codec ID                       : V_MPEG4/ISO/AVC
Duration                       : 1 h 36 min
Bit rate                       : 996 kb/s
Width                          : 1 280 pixels
Height                         : 544 pixels
Display aspect ratio           : 2.35:1
Frame rate mode                : Constant
Frame rate                     : 23.976 (24000/1001) FPS
Original frame rate            : 23.976 (23976/1000) FPS
Stream size                    : 688 MiB (86%)
Writing library                : x264

Audio #1
Format                         : AAC
Duration                       : 1 h 36 min
Bit rate                       : 83.9 kb/s
Channel(s)                     : 6 channels
Channel positions              : Front: L C R, Side: L R, LFE
Sampling rate                  : 44.1 kHz
Frame rate                     : 43.066 FPS (1024 SPF)
Stream size                    : 57.9 MiB (7%)
Language                       : English

Audio #2
Format                         : AAC
Duration                       : 1 h 36 min
Bit rate                       : 76.7 kb/s
Channel(s)                     : 6 channels
Channel positions              : Front: L C R, Side: L R, LFE
Sampling rate                  : 44.1 kHz
Frame rate                     : 43.066 FPS (1024 SPF)
Stream size                    : 53.0 MiB (7%)
Language                       : Hindi

Text
Language                       : English

medifire

Loading...