XML Sitemap | Regarder en Streaming | dos son familia

Chaos 2005 720p Esub BluRay Dual Audio English Hindi GOPISAHI

[quote] Encoded By GOSA /quote]

Download Here                   Watch Now

Format : Matroska
Format version : Version 4 / Version 2
File size : 517 MiB
Duration : 1 h 46 min
Overall bit rate : 679 kb/s
Movie name : Chaos 2005 GOPISAHI

Video
Format : AVC
Codec ID : V_MPEG4/ISO/AVC
Duration : 1 h 46 min
Bit rate : 500 kb/s
Width : 1 280 pixels
Height : 544 pixels
Display aspect ratio : 2.35:1
Frame rate mode : Constant
Frame rate : 23.976 (24000/1001) FPS
Stream size : 380 MiB (74{c3004b8f5e0f37c8553e313d82107df75406ab532a995ee1e957eb0f6eb30398})
Writing library : x264 core 148 r2708 86b7198

Audio #1
Format : AAC
Duration : 1 h 46 min
Bit rate : 88.8 kb/s
Channel(s) : 6 channels
Channel positions : Front: L C R, Side: L R, LFE
Sampling rate : 44.1 kHz
Frame rate : 43.066 FPS (1024 SPF)
Compression mode : Lossy
Stream size : 67.5 MiB (13{c3004b8f5e0f37c8553e313d82107df75406ab532a995ee1e957eb0f6eb30398})
Language : Hindi

Audio #2
Format : AAC
Duration : 1 h 46 min
Bit rate : 87.7 kb/s
Channel(s) : 6 channels
Channel positions : Front: L C R, Side: L R, LFE
Sampling rate : 44.1 kHz
Frame rate : 43.066 FPS (1024 SPF)
Compression mode : Lossy
Stream size : 66.7 MiB (13{c3004b8f5e0f37c8553e313d82107df75406ab532a995ee1e957eb0f6eb30398})
Language : English

Text
Language : English

drive

More GD Links

Loading...